Чиполлино. Заколдованный мальчик (1955, 1961) DVD5 <Реставрация> скачать торрент

Производство: СССР/Союзмультфильм
Жанр: мультфильм, короткометражка
Режиссер: Владимир Полковников, Александра Снежко-Блоцкая, Борис Дежкин

Описание

Вашему вниманию предлагается сборник мультфильмов киностудии Союзмультфильм. Знакомая каждому с детства сказка Чиполлино Джанни Родари рассказывает о мальчике-луковке и его друзьях из фруктово-овощного сказочного мира, которые борются за справедливость и мечтают о добре. Не менее популярная и любимая детьми сказочная повесть шведской писательницы Сельмы Лагерлеф Чудесное путешествие на гусях (название мультипликационной версии - Заколдованный мальчик), рассказывающая об озорнике Нильсе, который обидел волшебного Гнома, за что был наказан: превращен в карлика и унесен гусями в Лапландию. Много благородных поступков совершил мальчик, прежде чем мудрый Гном снял с него свои чары.

Возраст: 6+ (зрителям, достигшим 6 лет)
Продолжительность: 00: 42: 51 + 00: 37: 42
Качество видео: DVD5
Субтитры: отсутствуют
Видео: MPEG-2, 720x576, ~5000 kbps
Аудио 1: AC3, 6 ch, 448 kbps
Аудио 2: AC3, 1 ch, 224 kbps
Общее
Полное имя : E: \Download!\Torrent!\Chipollino_nnm-club.info\VIDEO_TS\VIDEO_TS.BUP
Формат : DVD Video
Профиль формата : Menu
Размер файла : 16, 0 Кбайт
Режим общего битрейта : Переменный
FileExtension_Invalid : ifo
Видео
Идентификатор : 224 (0xE0)
Формат : MPEG Video
Версия формата : Version 2
Вид битрейта : Переменный
Ширина : 720 пикселей
Высота : 576 пикселей
Соотношение сторон : 4: 3
Частота кадров : 25, 000 кадров/сек
Стандарт вещания : PAL
Метод сжатия : С потерями
Текст
Формат : RLE
Формат/Информация : Run-length encoding
Битовая глубина : 2 бит
Общее
Полное имя : E: \Download!\Torrent!\Chipollino_nnm-club.info\VIDEO_TS\VIDEO_TS.IFO
Формат : DVD Video
Профиль формата : Menu
Размер файла : 16, 0 Кбайт
Режим общего битрейта : Переменный
Видео
Идентификатор : 224 (0xE0)
Формат : MPEG Video
Версия формата : Version 2
Вид битрейта : Переменный
Ширина : 720 пикселей
Высота : 576 пикселей
Соотношение сторон : 4: 3
Частота кадров : 25, 000 кадров/сек
Стандарт вещания : PAL
Метод сжатия : С потерями
Текст
Формат : RLE
Формат/Информация : Run-length encoding
Битовая глубина : 2 бит
Общее
Полное имя : E: \Download!\Torrent!\Chipollino_nnm-club.info\VIDEO_TS\VIDEO_TS.VOB
Формат : MPEG-PS
Размер файла : 154 Кбайт
Продолжительность : 600 мс.
Общий поток : 2 103 Кбит/сек
Видео
Идентификатор : 224 (0xE0)
Формат : MPEG Video
Версия формата : Version 2
Профиль формата : [email protected]
Настройки формата : CustomMatrix/BVOP
Параметр BVOP формата : Да
Параметр матрицы формата : Выборочная
Структура изображения : Frame
Продолжительность : 600 мс.
Вид битрейта : Постоянный
Максимальный битрейт : 2 000 Кбит/сек
Ширина : 720 пикселей
Высота : 576 пикселей
Соотношение сторон : 4: 3
Частота кадров : 25, 000 кадров/сек
Стандарт вещания : PAL
Цветовое пространство : YUV
Субдискретизация насыщенности : 4: 2: 0
Битовая глубина : 8 бит
Тип развёртки : Чересстрочная
Порядок развёртки : Верхнее поле первое
Метод сжатия : С потерями
Временной код первого кадра : 00: 00: 00: 00
Оригинал временного кода : Group of pictures t_head
Текст
Идентификатор : 189 (0xBD)-32 (0x20)
Формат : RLE
Формат/Информация : Run-length encoding
Режим смешивания : DVD-Video
Меню
Общее
Полное имя : E: \Download!\Torrent!\Chipollino_nnm-club.info\VIDEO_TS\VTS_01_0.BUP
Формат : DVD Video
Профиль формата : Program
Размер файла : 40, 0 Кбайт
Продолжительность : 51 с. 120 мс.
Режим общего битрейта : Переменный
Общий поток : 6 410 бит/сек
FileExtension_Invalid : ifo
Видео
Идентификатор : 224 (0xE0)
Формат : MPEG Video
Версия формата : Version 2
Продолжительность : 51 с. 120 мс.
Вид битрейта : Переменный
Ширина : 720 пикселей
Высота : 576 пикселей
Соотношение сторон : 4: 3
Частота кадров : 25, 000 кадров/сек
Стандарт вещания : PAL
Метод сжатия : С потерями
Duration_Source : General_Duration
Аудио #1
Формат : AC-3
Формат/Информация : Audio Coding 3
Продолжительность : 51 с. 120 мс.
Каналы : 6 каналов
Частота : 48, 0 КГц
Метод сжатия : С потерями
Язык : English
Duration_Source : General_Duration
Аудио #2
Формат : AC-3
Формат/Информация : Audio Coding 3
Продолжительность : 51 с. 120 мс.
Каналы : 6 каналов
Частота : 48, 0 КГц
Метод сжатия : С потерями
Язык : English
Duration_Source : General_Duration
Аудио #3
Формат : AC-3
Формат/Информация : Audio Coding 3
Продолжительность : 51 с. 120 мс.
Каналы : 6 каналов
Частота : 48, 0 КГц
Метод сжатия : С потерями
Язык : English
Duration_Source : General_Duration
Аудио #4
Формат : AC-3
Формат/Информация : Audio Coding 3
Продолжительность : 51 с. 120 мс.
Каналы : 6 каналов
Частота : 48, 0 КГц
Метод сжатия : С потерями
Язык : English
Duration_Source : General_Duration
Аудио #5
Формат : AC-3
Формат/Информация : Audio Coding 3
Продолжительность : 51 с. 120 мс.
Каналы : 6 каналов
Частота : 48, 0 КГц
Метод сжатия : С потерями
Язык : English
Duration_Source : General_Duration
Аудио #6
Формат : AC-3
Формат/Информация : Audio Coding 3
Продолжительность : 51 с. 120 мс.
Каналы : 6 каналов
Частота : 48, 0 КГц
Метод сжатия : С потерями
Язык : English
Duration_Source : General_Duration
Аудио #7
Формат : AC-3
Формат/Информация : Audio Coding 3
Продолжительность : 51 с. 120 мс.
Каналы : 6 каналов
Частота : 48, 0 КГц
Метод сжатия : С потерями
Язык : English
Duration_Source : General_Duration
Аудио #8
Формат : AC-3
Формат/Информация : Audio Coding 3
Продолжительность : 51 с. 120 мс.
Каналы : 6 каналов
Частота : 48, 0 КГц
Метод сжатия : С потерями
Язык : English
Duration_Source : General_Duration
Текст #1
Формат : RLE
Формат/Информация : Run-length encoding
Битовая глубина : 2 бит
Текст #2
Формат : RLE
Формат/Информация : Run-length encoding
Битовая глубина : 2 бит
Текст #3
Формат : RLE
Формат/Информация : Run-length encoding
Битовая глубина : 2 бит
Текст #4
Формат : RLE
Формат/Информация : Run-length encoding
Битовая глубина : 2 бит
Текст #5
Формат : RLE
Формат/Информация : Run-length encoding
Битовая глубина : 2 бит
Текст #6
Формат : RLE
Формат/Информация : Run-length encoding
Битовая глубина : 2 бит
Текст #7
Формат : RLE
Формат/Информация : Run-length encoding
Битовая глубина : 2 бит
Текст #8
Формат : RLE
Формат/Информация : Run-length encoding
Битовая глубина : 2 бит
Текст #9
Формат : RLE
Формат/Информация : Run-length encoding
Битовая глубина : 2 бит
Текст #10
Формат : RLE
Формат/Информация : Run-length encoding
Битовая глубина : 2 бит
Текст #11
Формат : RLE
Формат/Информация : Run-length encoding
Битовая глубина : 2 бит
Текст #12
Формат : RLE
Формат/Информация : Run-length encoding
Битовая глубина : 2 бит
Текст #13
Формат : RLE
Формат/Информация : Run-length encoding
Битовая глубина : 2 бит
Текст #14
Формат : RLE
Формат/Информация : Run-length encoding
Битовая глубина : 2 бит
Текст #15
Формат : RLE
Формат/Информация : Run-length encoding
Битовая глубина : 2 бит
Текст #16
Формат : RLE
Формат/Информация : Run-length encoding
Битовая глубина : 2 бит
Текст #17
Формат : RLE
Формат/Информация : Run-length encoding
Битовая глубина : 2 бит
Текст #18
Формат : RLE
Формат/Информация : Run-length encoding
Битовая глубина : 2 бит
Текст #19
Формат : RLE
Формат/Информация : Run-length encoding
Битовая глубина : 2 бит
Текст #20
Формат : RLE
Формат/Информация : Run-length encoding
Битовая глубина : 2 бит
Текст #21
Формат : RLE
Формат/Информация : Run-length encoding
Битовая глубина : 2 бит
Текст #22
Формат : RLE
Формат/Информация : Run-length encoding
Битовая глубина : 2 бит
Текст #23
Формат : RLE
Формат/Информация : Run-length encoding
Битовая глубина : 2 бит
Текст #24
Формат : RLE
Формат/Информация : Run-length encoding
Битовая глубина : 2 бит
Текст #25
Формат : RLE
Формат/Информация : Run-length encoding
Битовая глубина : 2 бит
Текст #26
Формат : RLE
Формат/Информация : Run-length encoding
Битовая глубина : 2 бит
Текст #27
Формат : RLE
Формат/Информация : Run-length encoding
Битовая глубина : 2 бит
Текст #28
Формат : RLE
Формат/Информация : Run-length encoding
Битовая глубина : 2 бит
Текст #29
Формат : RLE
Формат/Информация : Run-length encoding
Битовая глубина : 2 бит
Текст #30
Формат : RLE
Формат/Информация : Run-length encoding
Битовая глубина : 2 бит
Текст #31
Формат : RLE
Формат/Информация : Run-length encoding
Битовая глубина : 2 бит
Текст #32
Формат : RLE
Формат/Информация : Run-length encoding
Битовая глубина : 2 бит
Меню
Продолжительность : 51 с. 120 мс.
00: 00: 00.000 : Chapter 1
Общее
Полное имя : E: \Download!\Torrent!\Chipollino_nnm-club.info\VIDEO_TS\VTS_01_0.IFO
Формат : DVD Video
Профиль формата : Program
Размер файла : 40, 0 Кбайт
Продолжительность : 51 с. 120 мс.
Режим общего битрейта : Переменный
Общий поток : 6 410 бит/сек
Видео
Идентификатор : 224 (0xE0)
Формат : MPEG Video
Версия формата : Version 2
Продолжительность : 51 с. 120 мс.
Вид битрейта : Переменный
Ширина : 720 пикселей
Высота : 576 пикселей
Соотношение сторон : 4: 3
Частота кадров : 25, 000 кадров/сек
Стандарт вещания : PAL
Метод сжатия : С потерями
Duration_Source : General_Duration
Аудио #1
Формат : AC-3
Формат/Информация : Audio Coding 3
Продолжительность : 51 с. 120 мс.
Каналы : 6 каналов
Частота : 48, 0 КГц
Метод сжатия : С потерями
Язык : English
Duration_Source : General_Duration
Аудио #2
Формат : AC-3
Формат/Информация : Audio Coding 3
Продолжительность : 51 с. 120 мс.
Каналы : 6 каналов
Частота : 48, 0 КГц
Метод сжатия : С потерями
Язык : English
Duration_Source : General_Duration
Аудио #3
Формат : AC-3
Формат/Информация : Audio Coding 3
Продолжительность : 51 с. 120 мс.
Каналы : 6 каналов
Частота : 48, 0 КГц
Метод сжатия : С потерями
Язык : English
Duration_Source : General_Duration
Аудио #4
Формат : AC-3
Формат/Информация : Audio Coding 3
Продолжительность : 51 с. 120 мс.
Каналы : 6 каналов
Частота : 48, 0 КГц
Метод сжатия : С потерями
Язык : English
Duration_Source : General_Duration
Аудио #5
Формат : AC-3
Формат/Информация : Audio Coding 3
Продолжительность : 51 с. 120 мс.
Каналы : 6 каналов
Частота : 48, 0 КГц
Метод сжатия : С потерями
Язык : English
Duration_Source : General_Duration
Аудио #6
Формат : AC-3
Формат/Информация : Audio Coding 3
Продолжительность : 51 с. 120 мс.
Каналы : 6 каналов
Частота : 48, 0 КГц
Метод сжатия : С потерями
Язык : English
Duration_Source : General_Duration
Аудио #7
Формат : AC-3
Формат/Информация : Audio Coding 3
Продолжительность : 51 с. 120 мс.
Каналы : 6 каналов
Частота : 48, 0 КГц
Метод сжатия : С потерями
Язык : English
Duration_Source : General_Duration
Аудио #8
Формат : AC-3
Формат/Информация : Audio Coding 3
Продолжительность : 51 с. 120 мс.
Каналы : 6 каналов
Частота : 48, 0 КГц
Метод сжатия : С потерями
Язык : English
Duration_Source : General_Duration
Текст #1
Формат : RLE
Формат/Информация : Run-length encoding
Битовая глубина : 2 бит
Текст #2
Формат : RLE
Формат/Информация : Run-length encoding
Битовая глубина : 2 бит
Текст #3
Формат : RLE
Формат/Информация : Run-length encoding
Битовая глубина : 2 бит
Текст #4
Формат : RLE
Формат/Информация : Run-length encoding
Битовая глубина : 2 бит
Текст #5
Формат : RLE
Формат/Информация : Run-length encoding
Битовая глубина : 2 бит
Текст #6
Формат : RLE
Формат/Информация : Run-length encoding
Битовая глубина : 2 бит
Текст #7
Формат : RLE
Формат/Информация : Run-length encoding
Битовая глубина : 2 бит
Текст #8
Формат : RLE
Формат/Информация : Run-length encoding
Битовая глубина : 2 бит
Текст #9
Формат : RLE
Формат/Информация : Run-length encoding
Битовая глубина : 2 бит
Текст #10
Формат : RLE
Формат/Информация : Run-length encoding
Битовая глубина : 2 бит
Текст #11
Формат : RLE
Формат/Информация : Run-length encoding
Битовая глубина : 2 бит
Текст #12
Формат : RLE
Формат/Информация : Run-length encoding
Битовая глубина : 2 бит
Текст #13
Формат : RLE
Формат/Информация : Run-length encoding
Битовая глубина : 2 бит
Текст #14
Формат : RLE
Формат/Информация : Run-length encoding
Битовая глубина : 2 бит
Текст #15
Формат : RLE
Формат/Информация : Run-length encoding
Битовая глубина : 2 бит
Текст #16
Формат : RLE
Формат/Информация : Run-length encoding
Битовая глубина : 2 бит
Текст #17
Формат : RLE
Формат/Информация : Run-length encoding
Битовая глубина : 2 бит
Текст #18
Формат : RLE
Формат/Информация : Run-length encoding
Битовая глубина : 2 бит
Текст #19
Формат : RLE
Формат/Информация : Run-length encoding
Битовая глубина : 2 бит
Текст #20
Формат : RLE
Формат/Информация : Run-length encoding
Битовая глубина : 2 бит
Текст #21
Формат : RLE
Формат/Информация : Run-length encoding
Битовая глубина : 2 бит
Текст #22
Формат : RLE
Формат/Информация : Run-length encoding
Битовая глубина : 2 бит
Текст #23
Формат : RLE
Формат/Информация : Run-length encoding
Битовая глубина : 2 бит
Текст #24
Формат : RLE
Формат/Информация : Run-length encoding
Битовая глубина : 2 бит
Текст #25
Формат : RLE
Формат/Информация : Run-length encoding
Битовая глубина : 2 бит
Текст #26
Формат : RLE
Формат/Информация : Run-length encoding
Битовая глубина : 2 бит
Текст #27
Формат : RLE
Формат/Информация : Run-length encoding
Битовая глубина : 2 бит
Текст #28
Формат : RLE
Формат/Информация : Run-length encoding
Битовая глубина : 2 бит
Текст #29
Формат : RLE
Формат/Информация : Run-length encoding
Битовая глубина : 2 бит
Текст #30
Формат : RLE
Формат/Информация : Run-length encoding
Битовая глубина : 2 бит
Текст #31
Формат : RLE
Формат/Информация : Run-length encoding
Битовая глубина : 2 бит
Текст #32
Формат : RLE
Формат/Информация : Run-length encoding
Битовая глубина : 2 бит
Меню
Продолжительность : 51 с. 120 мс.
00: 00: 00.000 : Chapter 1
Общее
Полное имя : E: \Download!\Torrent!\Chipollino_nnm-club.info\VIDEO_TS\VTS_01_0.VOB
Формат : MPEG-PS
Размер файла : 135 Мбайт
Продолжительность : 57 с. 600 мс.
Режим общего битрейта : Переменный
Общий поток : 19, 7 Мбит/сек
Видео
Идентификатор : 224 (0xE0)
Формат : MPEG Video
Версия формата : Version 2
Профиль формата : [email protected]
Настройки формата : CustomMatrix/BVOP
Параметр BVOP формата : Да
Параметр матрицы формата : Выборочная
Параметр GOP формата : M=3, N=12
Структура изображения : Frame
Продолжительность : 57 с. 600 мс.
Вид битрейта : Переменный
Битрейт : 18, 9 Мбит/сек
Максимальный битрейт : 5 096 Кбит/сек
Ширина : 720 пикселей
Высота : 576 пикселей
Соотношение сторон : 4: 3
Частота кадров : 25, 000 кадров/сек
Стандарт вещания : PAL
Цветовое пространство : YUV
Субдискретизация насыщенности : 4: 2: 0
Битовая глубина : 8 бит
Тип развёртки : Чересстрочная
Порядок развёртки : Верхнее поле первое
Метод сжатия : С потерями
Бит/(Пиксели*Кадры) : 1.822
Временной код первого кадра : 00: 00: 00: 01
Оригинал временного кода : Group of pictures t_head
GOP, открыто/закрыто : Открыто
GOP, открыто/закрыто на первом кадре : Закрыто
Размер потока : 130 Мбайт (96%)
Аудио
Идентификатор : 189 (0xBD)-128 (0x80)
Формат : AC-3
Формат/Информация : Audio Coding 3
Коммерческое название : Dolby Digital
Режим смешивания : DVD-Video
Продолжительность : 57 с. 568 мс.
Вид битрейта : Постоянный
Битрейт : 448 Кбит/сек
Каналы : 3 канала
Channel layout : L R C
Частота : 48, 0 КГц
Частота кадров : 31, 250 кадров/сек (1536 SPF)
Метод сжатия : С потерями
Размер потока : 3, 07 Мбайт (2%)
Service kind : Complete Main
Текст
Идентификатор : 189 (0xBD)-32 (0x20)
Формат : RLE
Формат/Информация : Run-length encoding
Режим смешивания : DVD-Video
Меню
Общее
Полное имя : E: \Download!\Torrent!\Chipollino_nnm-club.info\VIDEO_TS\VTS_01_1.VOB
Формат : MPEG-PS
Размер файла : 25, 6 Мбайт
Продолжительность : 51 с. 120 мс.
Режим общего битрейта : Переменный
Общий поток : 4 205 Кбит/сек
Видео
Идентификатор : 224 (0xE0)
Формат : MPEG Video
Версия формата : Version 2
Профиль формата : [email protected]
Настройки формата : CustomMatrix/BVOP
Параметр BVOP формата : Да
Параметр матрицы формата : Выборочная
Параметр GOP формата : M=3, N=15
Структура изображения : Frame
Продолжительность : 51 с. 120 мс.
Вид битрейта : Переменный
Битрейт : 4 121 Кбит/сек
Максимальный битрейт : 8 641 Кбит/сек
Ширина : 720 пикселей
Высота : 576 пикселей
Соотношение сторон : 4: 3
Частота кадров : 25, 000 кадров/сек
Стандарт вещания : PAL
Цветовое пространство : YUV
Субдискретизация насыщенности : 4: 2: 0
Битовая глубина : 8 бит
Тип развёртки : Чересстрочная
Порядок развёртки : Верхнее поле первое
Метод сжатия : С потерями
Бит/(Пиксели*Кадры) : 0.397
Временной код первого кадра : 00: 00: 00: 01
Оригинал временного кода : Group of pictures t_head
GOP, открыто/закрыто : Открыто
GOP, открыто/закрыто на первом кадре : Закрыто
Размер потока : 25, 1 Мбайт (98%)
Меню
Общее
Полное имя : E: \Download!\Torrent!\Chipollino_nnm-club.info\VIDEO_TS\VTS_02_0.BUP
Формат : DVD Video
Профиль формата : Program
Размер файла : 36, 0 Кбайт
Продолжительность : 37 м. 42 с.
Режим общего битрейта : Переменный
Общий поток : 130 бит/сек
FileExtension_Invalid : ifo
Видео
Идентификатор : 224 (0xE0)
Формат : MPEG Video
Версия формата : Version 2
Продолжительность : 37 м. 42 с.
Вид битрейта : Переменный
Ширина : 720 пикселей
Высота : 576 пикселей
Соотношение сторон : 4: 3
Частота кадров : 25, 000 кадров/сек
Стандарт вещания : PAL
Метод сжатия : С потерями
Duration_Source : General_Duration
Аудио #1
Идентификатор : 128 (0x80)
Формат : AC-3
Формат/Информация : Audio Coding 3
Продолжительность : 37 м. 42 с.
Каналы : 6 каналов
Частота : 48, 0 КГц
Метод сжатия : С потерями
Язык : Russian
Duration_Source : General_Duration
Аудио #2
Идентификатор : 129 (0x81)
Формат : AC-3
Формат/Информация : Audio Coding 3
Продолжительность : 37 м. 42 с.
Каналы : 1 канал
Частота : 48, 0 КГц
Метод сжатия : С потерями
Язык : Russian
Duration_Source : General_Duration
Меню #1
Продолжительность : 37 м. 42 с.
00: 00: 00.000 : Chapter 1
00: 07: 13.200 : Chapter 2
00: 12: 37.200 : Chapter 3
00: 20: 55.800 : Chapter 4
00: 23: 34.800 : Chapter 5
00: 33: 32.400 : Chapter 6
List (Audio) : 0/1
Меню #2
Продолжительность : 37 м. 42 с.
00: 00: 00.000 : Chapter 1
00: 07: 13.200 : Chapter 2
00: 12: 37.200 : Chapter 3
00: 20: 55.800 : Chapter 4
00: 23: 34.800 : Chapter 5
00: 33: 32.400 : Chapter 6
List (Audio) : 0/1
Общее
Полное имя : E: \Download!\Torrent!\Chipollino_nnm-club.info\VIDEO_TS\VTS_02_0.IFO
Формат : DVD Video
Профиль формата : Program
Размер файла : 36, 0 Кбайт
Продолжительность : 37 м. 42 с.
Режим общего битрейта : Переменный
Общий поток : 130 бит/сек
Видео
Идентификатор : 224 (0xE0)
Формат : MPEG Video
Версия формата : Version 2
Продолжительность : 37 м. 42 с.
Вид битрейта : Переменный
Ширина : 720 пикселей
Высота : 576 пикселей
Соотношение сторон : 4: 3
Частота кадров : 25, 000 кадров/сек
Стандарт вещания : PAL
Метод сжатия : С потерями
Duration_Source : General_Duration
Аудио #1
Идентификатор : 128 (0x80)
Формат : AC-3
Формат/Информация : Audio Coding 3
Продолжительность : 37 м. 42 с.
Каналы : 6 каналов
Частота : 48, 0 КГц
Метод сжатия : С потерями
Язык : Russian
Duration_Source : General_Duration
Аудио #2
Идентификатор : 129 (0x81)
Формат : AC-3
Формат/Информация : Audio Coding 3
Продолжительность : 37 м. 42 с.
Каналы : 1 канал
Частота : 48, 0 КГц
Метод сжатия : С потерями
Язык : Russian
Duration_Source : General_Duration
Меню #1
Продолжительность : 37 м. 42 с.
00: 00: 00.000 : Chapter 1
00: 07: 13.200 : Chapter 2
00: 12: 37.200 : Chapter 3
00: 20: 55.800 : Chapter 4
00: 23: 34.800 : Chapter 5
00: 33: 32.400 : Chapter 6
List (Audio) : 0/1
Меню #2
Продолжительность : 37 м. 42 с.
00: 00: 00.000 : Chapter 1
00: 07: 13.200 : Chapter 2
00: 12: 37.200 : Chapter 3
00: 20: 55.800 : Chapter 4
00: 23: 34.800 : Chapter 5
00: 33: 32.400 : Chapter 6
List (Audio) : 0/1
Общее
Полное имя : E: \Download!\Torrent!\Chipollino_nnm-club.info\VIDEO_TS\VTS_02_0.VOB
Формат : MPEG-PS
Размер файла : 154 Кбайт
Продолжительность : 600 мс.
Общий поток : 2 103 Кбит/сек
Видео
Идентификатор : 224 (0xE0)
Формат : MPEG Video
Версия формата : Version 2
Профиль формата : [email protected]
Настройки формата : CustomMatrix/BVOP
Параметр BVOP формата : Да
Параметр матрицы формата : Выборочная
Структура изображения : Frame
Продолжительность : 600 мс.
Вид битрейта : Постоянный
Максимальный битрейт : 2 000 Кбит/сек
Ширина : 720 пикселей
Высота : 576 пикселей
Соотношение сторон : 4: 3
Частота кадров : 25, 000 кадров/сек
Стандарт вещания : PAL
Цветовое пространство : YUV
Субдискретизация насыщенности : 4: 2: 0
Битовая глубина : 8 бит
Тип развёртки : Чересстрочная
Порядок развёртки : Верхнее поле первое
Метод сжатия : С потерями
Временной код первого кадра : 00: 00: 00: 00
Оригинал временного кода : Group of pictures t_head
Текст
Идентификатор : 189 (0xBD)-32 (0x20)
Формат : RLE
Формат/Информация : Run-length encoding
Режим смешивания : DVD-Video
Меню
Общее
Полное имя : E: \Download!\Torrent!\Chipollino_nnm-club.info\VIDEO_TS\VTS_02_1.VOB
Формат : MPEG-PS
Размер файла : 1 024 Мбайт
Продолжительность : 22 м. 42 с.
Режим общего битрейта : Переменный
Общий поток : 6 304 Кбит/сек
Видео
Идентификатор : 224 (0xE0)
Формат : MPEG Video
Версия формата : Version 2
Профиль формата : [email protected]
Настройки формата : CustomMatrix/BVOP
Параметр BVOP формата : Да
Параметр матрицы формата : Выборочная
Параметр GOP формата : M=3, N=15
Структура изображения : Frame
Продолжительность : 22 м. 42 с.
Вид битрейта : Переменный
Битрейт : 5 524 Кбит/сек
Ширина : 720 пикселей
Высота : 576 пикселей
Соотношение сторон : 4: 3
Частота кадров : 25, 000 кадров/сек
Стандарт вещания : PAL
Цветовое пространство : YUV
Субдискретизация насыщенности : 4: 2: 0
Битовая глубина : 8 бит
Тип развёртки : Чересстрочная
Порядок развёртки : Верхнее поле первое
Метод сжатия : С потерями
Бит/(Пиксели*Кадры) : 0.533
Временной код первого кадра : 00: 00: 00: 01
Оригинал временного кода : Group of pictures t_head
GOP, открыто/закрыто : Открыто
GOP, открыто/закрыто на первом кадре : Закрыто
Размер потока : 894 Мбайт (87%)
Аудио #1
Идентификатор : 189 (0xBD)-128 (0x80)
Формат : AC-3
Формат/Информация : Audio Coding 3
Коммерческое название : Dolby Digital
Режим смешивания : DVD-Video
Продолжительность : 22 м. 41 с.
Вид битрейта : Постоянный
Битрейт : 448 Кбит/сек
Каналы : 6 каналов
Channel layout : L R C LFE Ls Rs
Частота : 48, 0 КГц
Частота кадров : 31, 250 кадров/сек (1536 SPF)
Метод сжатия : С потерями
Задержка видео : 494 мс.
Размер потока : 72, 7 Мбайт (7%)
Service kind : Complete Main
Аудио #2
Идентификатор : 189 (0xBD)-129 (0x81)
Формат : AC-3
Формат/Информация : Audio Coding 3
Коммерческое название : Dolby Digital
Режим смешивания : DVD-Video
Продолжительность : 22 м. 41 с.
Вид битрейта : Постоянный
Битрейт : 224 Кбит/сек
Каналы : 1 канал
Channel layout : C
Частота : 48, 0 КГц
Частота кадров : 31, 250 кадров/сек (1536 SPF)
Метод сжатия : С потерями
Задержка видео : 496 мс.
Размер потока : 36, 4 Мбайт (4%)
Service kind : Complete Main
Меню
Общее
Полное имя : E: \Download!\Torrent!\Chipollino_nnm-club.info\VIDEO_TS\VTS_02_2.VOB
Формат : MPEG-PS
Размер файла : 676 Мбайт
Продолжительность : 14 м. 59 с.
Режим общего битрейта : Переменный
Общий поток : 6 303 Кбит/сек
Видео
Идентификатор : 224 (0xE0)
Формат : MPEG Video
Версия формата : Version 2
Профиль формата : [email protected]
Настройки формата : CustomMatrix/BVOP
Параметр BVOP формата : Да
Параметр матрицы формата : Выборочная
Параметр GOP формата : M=3, N=15
Структура изображения : Frame
Продолжительность : 14 м. 59 с.
Вид битрейта : Переменный
Битрейт : 5 524 Кбит/сек
Ширина : 720 пикселей
Высота : 576 пикселей
Соотношение сторон : 4: 3
Частота кадров : 25, 000 кадров/сек
Стандарт вещания : PAL
Цветовое пространство : YUV
Субдискретизация насыщенности : 4: 2: 0
Битовая глубина : 8 бит
Тип развёртки : Чересстрочная
Порядок развёртки : Верхнее поле первое
Метод сжатия : С потерями
Бит/(Пиксели*Кадры) : 0.533
Временной код первого кадра : 00: 22: 42: 16
Оригинал временного кода : Group of pictures t_head
GOP, открыто/закрыто : Открыто
Размер потока : 590 Мбайт (87%)
Аудио #1
Идентификатор : 189 (0xBD)-128 (0x80)
Формат : AC-3
Формат/Информация : Audio Coding 3
Коммерческое название : Dolby Digital
Режим смешивания : DVD-Video
Продолжительность : 14 м. 59 с.
Вид битрейта : Постоянный
Битрейт : 448 Кбит/сек
Каналы : 6 каналов
Channel layout : L R C LFE Ls Rs
Частота : 48, 0 КГц
Частота кадров : 31, 250 кадров/сек (1536 SPF)
Метод сжатия : С потерями
Задержка видео : -618 мс.
Размер потока : 48, 1 Мбайт (7%)
Service kind : Complete Main
Аудио #2
Идентификатор : 189 (0xBD)-129 (0x81)
Формат : AC-3
Формат/Информация : Audio Coding 3
Коммерческое название : Dolby Digital
Режим смешивания : DVD-Video
Продолжительность : 14 м. 59 с.
Вид битрейта : Постоянный
Битрейт : 224 Кбит/сек
Каналы : 1 канал
Channel layout : C
Частота : 48, 0 КГц
Частота кадров : 31, 250 кадров/сек (1536 SPF)
Метод сжатия : С потерями
Задержка видео : -584 мс.
Размер потока : 24, 0 Мбайт (4%)
Service kind : Complete Main
Меню
Общее
Полное имя : E: \Download!\Torrent!\Chipollino_nnm-club.info\VIDEO_TS\VTS_03_0.BUP
Формат : DVD Video
Профиль формата : Program
Размер файла : 38, 0 Кбайт
Продолжительность : 42 м. 51 с.
Режим общего битрейта : Переменный
Общий поток : 121 бит/сек
FileExtension_Invalid : ifo
Видео
Идентификатор : 224 (0xE0)
Формат : MPEG Video
Версия формата : Version 2
Продолжительность : 42 м. 51 с.
Вид битрейта : Переменный
Ширина : 720 пикселей
Высота : 576 пикселей
Соотношение сторон : 4: 3
Частота кадров : 25, 000 кадров/сек
Стандарт вещания : PAL
Метод сжатия : С потерями
Duration_Source : General_Duration
Аудио #1
Идентификатор : 128 (0x80)
Формат : AC-3
Формат/Информация : Audio Coding 3
Продолжительность : 42 м. 51 с.
Каналы : 6 каналов
Частота : 48, 0 КГц
Метод сжатия : С потерями
Язык : Russian
Duration_Source : General_Duration
Аудио #2
Идентификатор : 129 (0x81)
Формат : AC-3
Формат/Информация : Audio Coding 3
Продолжительность : 42 м. 51 с.
Каналы : 1 канал
Частота : 48, 0 КГц
Метод сжатия : С потерями
Язык : Russian
Duration_Source : General_Duration
Меню #1
Продолжительность : 42 м. 51 с.
00: 00: 00.000 : Chapter 1
00: 09: 26.400 : Chapter 2
00: 13: 10.200 : Chapter 3
00: 21: 36.000 : Chapter 4
00: 28: 24.600 : Chapter 5
00: 36: 42.000 : Chapter 6
List (Audio) : 0/1
Меню #2
Продолжительность : 42 м. 51 с.
00: 00: 00.000 : Chapter 1
00: 09: 26.400 : Chapter 2
00: 13: 10.200 : Chapter 3
00: 21: 36.000 : Chapter 4
00: 28: 24.600 : Chapter 5
00: 36: 42.000 : Chapter 6
List (Audio) : 0/1
Общее
Полное имя : E: \Download!\Torrent!\Chipollino_nnm-club.info\VIDEO_TS\VTS_03_0.IFO
Формат : DVD Video
Профиль формата : Program
Размер файла : 38, 0 Кбайт
Продолжительность : 42 м. 51 с.
Режим общего битрейта : Переменный
Общий поток : 121 бит/сек
Видео
Идентификатор : 224 (0xE0)
Формат : MPEG Video
Версия формата : Version 2
Продолжительность : 42 м. 51 с.
Вид битрейта : Переменный
Ширина : 720 пикселей
Высота : 576 пикселей
Соотношение сторон : 4: 3
Частота кадров : 25, 000 кадров/сек
Стандарт вещания : PAL
Метод сжатия : С потерями
Duration_Source : General_Duration
Аудио #1
Идентификатор : 128 (0x80)
Формат : AC-3
Формат/Информация : Audio Coding 3
Продолжительность : 42 м. 51 с.
Каналы : 6 каналов
Частота : 48, 0 КГц
Метод сжатия : С потерями
Язык : Russian
Duration_Source : General_Duration
Аудио #2
Идентификатор : 129 (0x81)
Формат : AC-3
Формат/Информация : Audio Coding 3
Продолжительность : 42 м. 51 с.
Каналы : 1 канал
Частота : 48, 0 КГц
Метод сжатия : С потерями
Язык : Russian
Duration_Source : General_Duration
Меню #1
Продолжительность : 42 м. 51 с.
00: 00: 00.000 : Chapter 1
00: 09: 26.400 : Chapter 2
00: 13: 10.200 : Chapter 3
00: 21: 36.000 : Chapter 4
00: 28: 24.600 : Chapter 5
00: 36: 42.000 : Chapter 6
List (Audio) : 0/1
Меню #2
Продолжительность : 42 м. 51 с.
00: 00: 00.000 : Chapter 1
00: 09: 26.400 : Chapter 2
00: 13: 10.200 : Chapter 3
00: 21: 36.000 : Chapter 4
00: 28: 24.600 : Chapter 5
00: 36: 42.000 : Chapter 6
List (Audio) : 0/1
Общее
Полное имя : E: \Download!\Torrent!\Chipollino_nnm-club.info\VIDEO_TS\VTS_03_0.VOB
Формат : MPEG-PS
Размер файла : 154 Кбайт
Продолжительность : 600 мс.
Общий поток : 2 103 Кбит/сек
Видео
Идентификатор : 224 (0xE0)
Формат : MPEG Video
Версия формата : Version 2
Профиль формата : [email protected]
Настройки формата : CustomMatrix/BVOP
Параметр BVOP формата : Да
Параметр матрицы формата : Выборочная
Структура изображения : Frame
Продолжительность : 600 мс.
Вид битрейта : Постоянный
Максимальный битрейт : 2 000 Кбит/сек
Ширина : 720 пикселей
Высота : 576 пикселей
Соотношение сторон : 4: 3
Частота кадров : 25, 000 кадров/сек
Стандарт вещания : PAL
Цветовое пространство : YUV
Субдискретизация насыщенности : 4: 2: 0
Битовая глубина : 8 бит
Тип развёртки : Чересстрочная
Порядок развёртки : Верхнее поле первое
Метод сжатия : С потерями
Временной код первого кадра : 00: 00: 00: 00
Оригинал временного кода : Group of pictures t_head
Текст
Идентификатор : 189 (0xBD)-32 (0x20)
Формат : RLE
Формат/Информация : Run-length encoding
Режим смешивания : DVD-Video
Меню
Общее
Полное имя : E: \Download!\Torrent!\Chipollino_nnm-club.info\VIDEO_TS\VTS_03_1.VOB
Формат : MPEG-PS
Размер файла : 1 024 Мбайт
Продолжительность : 22 м. 50 с.
Режим общего битрейта : Переменный
Общий поток : 6 265 Кбит/сек
Видео
Идентификатор : 224 (0xE0)
Формат : MPEG Video
Версия формата : Version 2
Профиль формата : [email protected]
Настройки формата : CustomMatrix/BVOP
Параметр BVOP формата : Да
Параметр матрицы формата : Выборочная
Параметр GOP формата : M=3, N=15
Структура изображения : Frame
Продолжительность : 22 м. 50 с.
Вид битрейта : Переменный
Битрейт : 5 468 Кбит/сек
Максимальный битрейт : 5 524 Кбит/сек
Ширина : 720 пикселей
Высота : 576 пикселей
Соотношение сторон : 4: 3
Частота кадров : 25, 000 кадров/сек
Стандарт вещания : PAL
Цветовое пространство : YUV
Субдискретизация насыщенности : 4: 2: 0
Битовая глубина : 8 бит
Тип развёртки : Чересстрочная
Порядок развёртки : Верхнее поле первое
Метод сжатия : С потерями
Бит/(Пиксели*Кадры) : 0.527
Временной код первого кадра : 00: 00: 00: 01
Оригинал временного кода : Group of pictures t_head
GOP, открыто/закрыто : Открыто
GOP, открыто/закрыто на первом кадре : Закрыто
Размер потока : 894 Мбайт (87%)
Аудио #1
Идентификатор : 189 (0xBD)-128 (0x80)
Формат : AC-3
Формат/Информация : Audio Coding 3
Коммерческое название : Dolby Digital
Режим смешивания : DVD-Video
Продолжительность : 22 м. 50 с.
Вид битрейта : Постоянный
Битрейт : 448 Кбит/сек
Каналы : 6 каналов
Channel layout : L R C LFE Ls Rs
Частота : 48, 0 КГц
Частота кадров : 31, 250 кадров/сек (1536 SPF)
Метод сжатия : С потерями
Размер потока : 73, 2 Мбайт (7%)
Service kind : Complete Main
Аудио #2
Идентификатор : 189 (0xBD)-129 (0x81)
Формат : AC-3
Формат/Информация : Audio Coding 3
Коммерческое название : Dolby Digital
Режим смешивания : DVD-Video
Продолжительность : 22 м. 50 с.
Вид битрейта : Постоянный
Битрейт : 224 Кбит/сек
Каналы : 1 канал
Channel layout : C
Частота : 48, 0 КГц
Частота кадров : 31, 250 кадров/сек (1536 SPF)
Метод сжатия : С потерями
Размер потока : 36, 6 Мбайт (4%)
Service kind : Complete Main
Меню
Общее
Полное имя : E: \Download!\Torrent!\Chipollino_nnm-club.info\VIDEO_TS\VTS_03_2.VOB
Формат : MPEG-PS
Размер файла : 896 Мбайт
Продолжительность : 20 м. 0 с.
Режим общего битрейта : Переменный
Общий поток : 6 257 Кбит/сек
Видео
Идентификатор : 224 (0xE0)
Формат : MPEG Video
Версия формата : Version 2
Профиль формата : [email protected]
Настройки формата : CustomMatrix/BVOP
Параметр BVOP формата : Да
Параметр матрицы формата : Выборочная
Параметр GOP формата : M=3, N=15
Структура изображения : Frame
Продолжительность : 20 м. 0 с.
Вид битрейта : Переменный
Битрейт : 5 460 Кбит/сек
Максимальный битрейт : 5 524 Кбит/сек
Ширина : 720 пикселей
Высота : 576 пикселей
Соотношение сторон : 4: 3
Частота кадров : 25, 000 кадров/сек
Стандарт вещания : PAL
Цветовое пространство : YUV
Субдискретизация насыщенности : 4: 2: 0
Битовая глубина : 8 бит
Тип развёртки : Чересстрочная
Порядок развёртки : Верхнее поле первое
Метод сжатия : С потерями
Бит/(Пиксели*Кадры) : 0.527
Временной код первого кадра : 00: 22: 51: 01
Оригинал временного кода : Group of pictures t_head
GOP, открыто/закрыто : Открыто
Размер потока : 781 Мбайт (87%)
Аудио #1
Идентификатор : 189 (0xBD)-128 (0x80)
Формат : AC-3
Формат/Информация : Audio Coding 3
Коммерческое название : Dolby Digital
Режим смешивания : DVD-Video
Продолжительность : 20 м. 0 с.
Вид битрейта : Постоянный
Битрейт : 448 Кбит/сек
Каналы : 6 каналов
Channel layout : L R C LFE Ls Rs
Частота : 48, 0 КГц
Частота кадров : 31, 250 кадров/сек (1536 SPF)
Метод сжатия : С потерями
Задержка видео : -584 мс.
Размер потока : 64, 1 Мбайт (7%)
Service kind : Complete Main
Аудио #2
Идентификатор : 189 (0xBD)-129 (0x81)
Формат : AC-3
Формат/Информация : Audio Coding 3
Коммерческое название : Dolby Digital
Режим смешивания : DVD-Video
Продолжительность : 20 м. 0 с.
Вид битрейта : Постоянный
Битрейт : 224 Кбит/сек
Каналы : 1 канал
Channel layout : C
Частота : 48, 0 КГц
Частота кадров : 31, 250 кадров/сек (1536 SPF)
Метод сжатия : С потерями
Задержка видео : -552 мс.
Размер потока : 32, 1 Мбайт (4%)
Service kind : Complete Main
Скачать торрент chipollino-zakoldovannyiy-malchik.torrent
Support: [email protected]